Nigerian reggae artist Majek Fashek has said, “If I was born in Jamaica, I’d still be an African. Top Albums Prisoner of Conscience Fashek, Majek. Reggae legend, Majek Fashek, has said that the leader of the All Progressives Congress APC; Bola Tinubu was a poor man before becoming wealthy. I'm the one wearing the shoe so I know where it pinches. "Send Down The Rain" is Ocean P's first official single from his upcoming project. For your search query Majek Fashek Ina New York MP3 we have found 1000000 songs matching your query but showing only top 10 results. 7:56 DOWNLOAD PLAY. 2Face Idibia. Martin won Digicel's Rising Stars in. a Nelz is an Afro Pop artiste, who grew up listening to the likes of Asa, Nina Simone, Elvis Presley, Elton John, Angelique, Majek Fashek, Fela Anikulapo etc whose music. Choose from several source of music. 6:24 DOWNLOAD PLAY. Majek Fashek Prisoner of Conscience. Catherine, Jamaica. here we go again / portrait 16. The likes of Majek Fashek, Ras Kimono, Oritz Wiliki, Mandators, Alex O (Okoligwe), Felix Liberty, Alex Zito (the tickle-me crooner), Lijadu Sisters, Mike Okri, Tosin Jegede (another young favourite of mine), Prince Wale-Man, Lieutenant Shotgun and a host of others. FASHEK MAJEK let righteousness cover the earth 1989 size:9. Fresh Music Most Recently MP3. Listen Segment One 1974 Blues by Seamus Blake and Chris Cheek CD: Reeds Ramble (Criss Cross) Don't be That Way by Teddy Wilson CD: The Chronological Teddy Wilson and His Orchestra: 1937-1938 (Classics). CheckOut: Olamide Is The Only One That Supported Majek Fashek Financially During Health Issues - Manager Reveals Davido added that the French dog who already has over 2000 followers on Instagram does not speak the french language but is richer and cuter than others. And all I see is you, and even if my house falls. Majek Fashek - Im Not Tired - 6:29 Majek Fashek - I Come From de Ghetto - 6:28. Majek Fashek. Miss Beverly - Ijahman 09. 89 In MP3 cart View MP3 Cart I Am Not Afraid. “You can not talk of overage now because they did MRI. When you click the download button, it offers you the choice of either downloading in MP3 or MP4. Na parte superior do ano de 2014 ela lançou Jah Ova Evil, produziu seu EP de estréia ´´1986 ´´,e, desde então, prendeu a atenção das massas de reggae roots com os singles ‘I’m Talking To You’, ‘Equal Rights’,‘Keep Your Head Up’ e ‘Mr. The singer’s manager, Umenka Uzoma who was a guest on Nigeria Info’s 99. Download free music. which the tempo of each song is different. Jah People. CLICK TO FOLLOW 24/7 CORONA VIRUS UPDATES HERE ADS:- No Risk,No product importation, No startup capital Amazing!!!Boost your financial income from home in this lockdown using your phone (CLICK HERE) Loading Sequel to the release of These Days, Dotman follows up with his first official single of the year titled ENUGBE. Search and download from millions of songs and albums. This news was made public by Daddy Showkey on Thursday, the 26th of September who expressed his anger and frustration over this loss via Instagram. Majek Fashek - I'm Not Tired→ Download, Listen and View free Majek Fashek - I'm Not Tired MP3, Video and Lyrics. teddy bear / g-wiz 12. “Send Down The Rain“ is Ocean P’s first official single from his upcoming project. 50+ videos Play all Mix - Majek Fashek - I'm Not Tired YouTube; Majek Fashek - I Am Not Afraid, Africa Unity - Duration: 10:48. His ability to mix local. Recorded At - Sigma. mp3 09 – Massive – Inner Circle. Blogger roots reggae o maior blog de reggae do Brasil venha conferir a geração do reggae que marcou anos 2000 80 & 90 baixe albuns com qualidades ROOTS REGGAE MAIOR ACERVO DE REGGAE DA INTERNET: 01/11/19. Please help improve this section by adding citations to reliable sources. mp3 02 - Cultural Roots - Every Man Has A Right. Couples hold simple wedding ceremony with only 10 people in attendance It appears simple weddings are the new thing that everyone must go by now. mp3 12 – Eclipse My Soul – Alexander Bernard. VIDEO: Xplain – Know Me. “I’m starving. Majek Fashek - Send Down the Rain Send ringtone 12. This is only available as an mp3 download. Majek Fashek - I'm Not Tired Send ringtone 12. The presidential chat started around 7:00PM Nigerian time, and was closely monitored byOlofofounited. 01 - State Trooper Style 02 - Island In The Sun 03 - Rent Man 04 - Sheep Skin Gone Clear 05 - Love Is What You Want 06 - Ting-A-Ling A-Ling 07 - What Happen To The Hostage. The Ghanaian born Nigerian artiste revealed to Punch Entertainment that he turned down a recording deal that was worth £365,000 (#80,000,000) from a record label in London as at the time he didn't have #300,000 in his bank account. His music cut across diverse genres fusing Afro pop, RnB, world music and/with reggae/dancehall to take his listeners on a musical journey, with influence such as Bob Marley, Lauren Hill and legendary Majek Fashek. She started singing at the age of 3years old and loved listening to music even at that age. No Dj will be ready for such time to waste on mixtape. Jah People. Catherine, Jamaica. mp3 12 – Eclipse My Soul – Alexander Bernard. " Some folks are pointing to the Enquirer article below as the reason for the wedding being called off. Please help improve this section by adding citations to reliable sources. Can't Blame You - Lucky Dube 14. I have a huge appreciation for most music, and for the philosophy, people, and sound of community radio. This record enjoyed a lot of airplay. Below are some of the Fuji Musicians that will featured in this post; Pasuma Wonder Wasiu Ayinde (Kwam1) Alhaji Sikiru Ayinde Barrister Ks1 King Saheed Osupa (Saridom. The performance staged in 1987 by the celebrated musician still remains a reference point for music pundits till date. brothers, sisters they are sharing love to get together now There would be no more sorrow (no more sorrow) No more weeping (no more weeping) No more crying(no more crying) No more war No more sorrow (no more sorrow) No more weeping (no more weeping) No more crying(no more crying) No more pain Holy Spirit, take over the. • Discover new music, albums, and podcasts • Search for your favorite song, artist, or podcast • Enjoy playlists made just for you • Make and share your own playlists • Find music for any mood and activity • Listen on your mobile. Artist: Majek Fashek Song: I'm Not Tired Album: Genre: 0. Push the door, I'm home at last and I'm soaking. Reggae legend, Majek Fashek, has said that the leader of the All Progressives Congress APC; Bola Tinubu was a poor man before becoming wealthy. Osito hit the road to Europe in 1998 -this long, tough exodus marked deeply his music and his identity. Majek Fashek - religion na politics. Love Is In The Air (feat Neo-S) 06. Majek Fashek is a Legend however u slice and dice it. Various translations of his name include "high priest who does not lie" and "powers of miracles, the high priest does not live", and he claims he was born with dreadlocks, the "holy" hairstyle of Rastafarianism. Don't worry, we don't spam. He is the founder and owner of the record label Rocktown Records, which is home to recording artists such as Edwards himself, Gil, Divine, King BAS, Nkay, David, Dudu and Micah Heavens, among others. GUIDE ME WHEN I WALK. experience that includes unlimited access to CD quality music. Babywrong’ feat Zionites. For Advert placement and enquiries, mail us at [email protected]. Majek fashek. Majekodumni Fasheke, better known as Majek Fashek, is a Nigerian reggae musician, one of the most popular from that country. 5 Million songs. I'm Not Tired 6:30 Play. Tuf-Kat 05:06, 18 January 2006 (UTC) The only cover of hotel california version reggae is from Majek Fashek. It's not reggae, it's called dancehall, wrong list guys. Majek Fashek is a Legend however u slice and dice it. Record Company - Sony Music (Nigeria) Ltd; Marketed By - Sony Music Entertainment (Nigeria) Ltd. Oh Yeah! 11. Burna Boy – “Anybody” [Lyrics]. Emmanuel Afunlehin a. She is a beautiful woman. For your search query Majek Fashek Ina New York MP3 we have found 1000000 songs matching your query but showing only top 10 results. What A Gwaan 17. judy had a boyfriend / riff 14. MAJEK FASHEK - MAJEK FASHEK IN A NEW YORK. Download free music. Latest Naija Music and Nigerian Songs From Top Naija Nigerian Artist, Rate Nigerian Music and Naija Music from 9ice, 2face, faze, dbanj and other nigerian artist for free I'm Not Afraid. Shop for Vinyl, CDs and more from Majek Fashek at the Discogs Marketplace. Artist: Majek Fashek Song: I'm Not Tired Album: Genre: 0. But the MRI is actually the problem. prisoner of conscience - Majek Fashek - holy spirit take over the world Toggle navigation Naijapals i'm not afraid by Majek Fashek Played 3763 times. African Unity - Majek Fashek Joy To The World - Three Dog Night Cluck 'Ol Hen - Joe Craven True To Myself - Ziggy Marley Secret Bottle Track - Rising Appalachia ** Specific request by lil' hippie head after seeing BTreotch's Antarctica videos!. This issue is so dope it gets you lightheaded as it takes you up to cloud 19 with Braille (Get the subscription and get the album for FREE!). Catherine, Jamaica. Free Download Majek Fashek Holy Spirit MP3, Size: 7. Majek Fashek,the prisoner of conscience. Don't worry, we don't spam. I think I'm going Mp3 Mp4 Mkv Videos And Music Download. cue), lossless » Этническая музыка Африки и Ближнего Востока (lossless) :: RuTracker. A couple has gone viral on social media over their simple wedding settings. “Olamide Is The Only Nigerian Artiste That Assisted With My Medicals Bills When I Was Sick In London” – Majek Fashek (0) Zlatan’s Reply To Those Saying He & Naira Marley Chased Olamide Out Of Market (3) Zlatan Shares The Message He Sent To Olamide Before He Became A Star (0) Yemi Alade Signs Deal With Universal Music Africa (0). Kweli's fifth solo album, Prisoner of Conscious, a title derived from Kweli's constant labeling as a "conscious rapper" and based on Nigerian reggae artist Majek Fashek's album Prisoner of Conscience. As a matter of fact, St. Majek Fashek - Sailing Send ringtone 16. Majek Fashek - Majek Beware Send ringtone 10. It's not reggae, it's called dancehall, wrong list guys. Free Download Majek Fashek Holy Spirit MP3, Size: 7. Many people would agree Lil Kesh kills any song he gets on for collaborations, he featured in a lot of hit songs of 2015 and his rap lines are always loved by fans as they are. He settled in Barcelona, Spain, where he […]. On his Instagram story, the Omobabaolowo crooner posted a picture of the dog who he claims to be the newest member. Choose from several source of music. This news was made public by Daddy Showkey on Thursday, the 26th of September who expressed his anger and frustration over this loss via Instagram. Billy Idol - Save Me. Please help improve this section by adding citations to reliable sources. So I am going to Germany next week, but I will be back with a new Listen to English podcast on about 5 June. This record enjoyed a lot of airplay. This is only available as an mp3 download. 82: Discography of Majek Fashek. makes me too sad to talk about him. Spirit Of Love Majek Fashek mp3 high quality download at MusicEel. Majek Fashek - So Long Send ringtone 8. WurlD Mp3 Download; Kcee – Oya Parté Mp3 Download; Stonebwoy – Black Madonna ft. 2baba (VIDEO) by PastorAji(m): 9:13am On Aug 24, 2016 GOD BLESS YOU MY BRODA I AM STILL YOUNG (EARLY30'S) BUT I STILL PREFER TO LISTEN TO DON WILLIAMS THAN TO LISTEN TO WIZKID. We have about 31 mp3 files ready to play and download. Ceeza Milli - Quarantine Riddim Mp3 Download; Lagos State Warns Private Schools Against Online Teaching. ” And as for me, I could do with a holiday. Davido (34) Donald Trump (18) Download Mp3 (21) EFCC (25) Election. Sauce KiD aka Sinzu completed high school education in Nigeria after which he moved to the United States. GUIDE ME WHEN I WALK. 5:29 [Deleted video] MAJEK FASHEK (I AM NOT AFRAID) by JAMES AKINA. mp3 12 – Eclipse My Soul – Alexander Bernard. About the Artist. Buy & Download Cheap Mp3 Music Online. Find Majek Fashek song information on AllMusic. You may also like Majek Fashek dumps women, drugs, says he is born again. 91MB - duration:06:20. Fewer films are made in Ghana as opposed to Nigeria's NOLLYWOOD industry; however, the plus to that is movies are carefully made and not simply rushed out in a week. African Reggae/10-majek_fashek-man_of_sorrow. Folks everywhere doubted me at first but I see folks hopping on the bandwagon now. Entered at Tue Jan 25 17:59:17 CET 2011 from (72. MP3 is a digital audio format without digital rights management (DRM) technology. Majek Fashek says. These are the throwback photos from Majek Fashek’s legendary performance years ago in Port Harcourt. I purchased this album in cassette format in 1996. I have to say it doesn't really sound like Ziggy, but I don't listen to a whole lot of him. 97 Mb ) Show Some ♥ if you like this and your're a fan drop your comment. slick rick 11. For a long time I had a super story to tell my friends back in Lagos, and apparently I still do to this day. Nigeria’s reggae music star, Majek Fashek, who was recently rumoured to be having medical and mental challenges, has claimed that he is not sick. And I want to thank you for giving me. tc (trust mi ths dude ws n is stil popular in zim). wav" WAVE TRACK 08 AUDIO TITLE "Send Down the Rain" PERFORMER "Majek Fashek" INDEX 01 00:00:00 TRACK 09 AUDIO TITLE "I'm Not Tired" PERFORMER "Majek Fashek" INDEX 00 05:16:50 FILE "09. Re: 2 Million Dollars Movie On Majek Fashek By Charles Novia by powerofmap(m): 5:09pm On Apr 10, 2008 He's a great man sha, But don't think an high budget like that should be on a movie of such. Ruddy Simbal é um cantor jamaicano do reggae das raízes,pouco conhecido. PSA: I’m happy to offer a naturist massage in London however there is no bjs or sex on offer Thank you : 1: Ultimate Guide Of WordPress Agency in London: 1: North London Collegiate School: 1: 4 Reasons Why You Think You’d Hate Spin Classes London: 1 ‘She’s not alone’: Protest in London over Hindu girl abducted in Pak: 1. 26-year-old building engineer, Benedict Otanwa, has told operatives of the Special Intelligence Response Team (IRT) that he took to crime after President Buhari came to power. African Reggae/10-majek_fashek-man_of_sorrow. Massive - Inner Circle 10. "I'm short of words, our last meetings was for you to meet with my manager Uzo in America and death took you away. Free MP3 Download in 1 Click. She is a beautiful woman. mp3 09 – Massive – Inner Circle. up nigeria and up chaka chaka. MP3 is a digital audio format without digital rights management (DRM) technology. https youtu be 2qGLwdEr8VA MP3. punks as well. that not mixtape. I’m bringing it to you straight, with no chaser! This time, the focus is Ebony Frelix, who is a colleague of mine in the tech realm. Majek Fashek was flown out of the country on Wednesday after he was diagnosed of an unknown illness that needed urgent attention abroad if he's to have any chance of survival according to a source close to the musician who is one of the parties responsible for his wellbeing,. Download Our Android App. Yes, it happens so many times. Little Patience Fashek, Majek. Jah People. Download Eric Donaldson songs, singles and albums on MP3. Good morning, I’m the right plug for your customizable and affordable wears today. Don't worry, we don't spam. Hello I saw your opinion about B. Pas De Problemes is from their 2002 CD Entre Freres. Majek Fashek - Majek Beware Send ringtone 10. Find Majek Fashek song information on AllMusic. Generally a protest-minded Rastafarian outfit, Steel Pulse started out playing authentic roots reggae with touches of jazz and Latin music, and earned a substantial audience among white U. PROMOTE / MONETIZE YOUR SONG NOW WHATSAPP 08157053556 Nigerian veteran reggae music maestro, Majekodunmi Fasheke, popularly known as ‘Majek Fashek’, has declared that if given the chance to be Nigeria’s President, he’ll do better than President Muhammadu Buhari. @thechrishelle. Jesus, keep me near the cross; / there a precious fountain, / free to all, a healing stream, / flows from Calvary's mountain. O designs and walked the Unizik Fashion Show and Awards run way emerging the Best Male Model for the night. Little Patience is a potent musical brew of Reggae and Afro-Beat with a drop of Fuji and a touch of Rock. With Spotify, you can play millions of songs and podcasts for free. There was a fight that involved him and Tekno that I made Tekno not to respect him. Lyrics: Majek Fashek - Send Down The Rain Download The sky look misty and cloudy Looks like rain gonna fall today This morning I have been soaked in mercy Waiting for the rain to drop the water. Seeing that dusty Majek Fashek record lying there in a dusty crate right next to a JVC jukebox, reminded me of those old school Charles Bronson action flicks from the 70s, where Mr. Majek Fashek - I Wanna Know Send ringtone 13. Bronson took out hordes of Baretta wielding gangsters with his trusty double barreled shakabula. 'I'm About To F*ck Shit Up'- Davido Brags About Collaboration With Adekunle Gold Posted on February 24, 2018 Entertainment News Davido's Uncle, Senator Adeleke Dances To Olamide's 'Wo' At Silverbird Awards. Ekperi Watts. 01 - State Trooper Style 02 - Island In The Sun 03 - Rent Man 04 - Sheep Skin Gone Clear 05 - Love Is What You Want 06 - Ting-A-Ling A-Ling 07 - What Happen To The Hostage. Lil Kesh released another banging hit song mid 2015 EFEJOKU featuring label mate Victoh, this actually boosted his fan base all the more showing what a real talent he is. Biggy Man M-Kaze When I met her she talk say this love go last forever Now we dea bitter Before I say we dea sweet like. Now I am 20 and I don't listen to her anymore. 91MB - duration:06:20. Fashek was born in Benin City, Nigeria to an Edo mother and a Yoruba father. May 31, 2011. In this post, I'm going to be providing free downloads to some of the the best Yoruba fuji music. Cannon posted a pic of himself in a hospital bed, hooked up to a bunch of monitors but he didn't really say what was wrong with him, but he hinted it was somehow related to exhaustion. Music 13370 songs, 34:13:43:15 total time, 53. Majek Fashek - Spirit of Love - Amazon. The classic song is reintroduced to a new generation of music enthusiasts via this updated version produced by Majek and mixed/mastered by Wole Oni. DOWNLOAD MP3: Dove Cameron – Remember Me ft. August Alsina) (#IDGT) [Official Music Video] Kevin. The best day of my life. Ceeza Milli - Quarantine Riddim Mp3 Download; Lagos State Warns Private Schools Against Online Teaching. For Advert placement and enquiries, mail us at [email protected]. More abundantly lyrics. Majek Fashek - Let It Shine Send ringtone 15. Before the release of "Rainbows", Kweli began working on "Prisoner", and put cuts originally intended for "Conscious" on "Rainbows". i m soooo happy hector won. cx All music archive download, free mp3. com music team and Waploaded. Jah Give Us Life - Wailing Souls 11. Nollywood actor and singer, Gabriel Afolayan also known as G'fresh is out with a new vibrant Afro-pop sound titled "Take A Chance". Also, Majek Beware" stands out on this album. prisoner of conscience - Majek Fashek - holy spirit take over the world Toggle navigation Naijapals i'm not afraid by Majek Fashek Played 3763 times. Ook Bob Marley en Majek Fashek namen reggaevarianten van het nummer op. Not too shabby for a an artist whose musical journey began in the ancient city of Benin as the youngest regular artist on NTA Benin's popular entertainment program called MUSIC PANORAMA, alongside artists like KRIS OKOTIE (now a Preacher), EMMA OGOSI, ENO LOUIS, EHI DUNCAN, FELIX LIBERTY, to mention but a few. Fallon met Nigerian artist Majek Fashek – whose song ‘We Are Not Afraid’ soundtracks the campaign – in 1991, when he traveled to Nigeria to spend time with the mythical singer they called ‘The Rainmaker’. 89 In MP3 cart View MP3 Cart I Am Not Afraid. 40 GB download Report Comments. com | Abegmusic Word #1 Music download Portal, New Music, Music Videos, Artists News/Gossip, Free Beats downloads, Discover new talents, 3-4Million guests monthly, take after on instagram and facebook @abegmusic1 visit www. Majek Fashek download free mp3. Waptrick Majek Fashek Mp3: Download Majek Fashek - Majek Fashek Ina New York, Majek Fashek - So Long, Majek Fashek - Little Patience, Majek Fashek - Spirit Of Love, Majek Fashek - Send Down The Rain, Majek Fashek - Our Father, Majek Fashek - Hotel California, Majek Fashek - I Wanna Know, Majek Fashek - Promise Land, Majek Fashek - Prostitute Destitute, Majek Fashek - Let Righteousness Cover. So as long as there is God, the message of the prisoner of conscience, will never fade out. Umenka Uzoma who was a guest on Nigeria Info's 99. "Olamide Is The Only Nigerian Artiste That Assisted With My Medicals Bills When I Was Sick In London" - Majek Fashek (0) Zlatan's Reply To Those Saying He & Naira Marley Chased Olamide Out Of Market (3) Zlatan Shares The Message He Sent To Olamide Before He Became A Star (0) Yemi Alade Signs Deal With Universal Music Africa (0). Alas, unethical behavior by the men in uniform cuts across different shorelines. Fallon met Nigerian artist Majek Fashek - whose song 'We Are Not Afraid' soundtracks the campaign - in 1991, when he traveled to Nigeria to spend time with the mythical singer they called 'The Rainmaker'. “You can not talk of overage now because they did MRI. The title of my album is I'm blessed. Fresh Music Most Recently MP3. Majek Fashek - Im Not Tired - 6:29 Majek Fashek - I Come From de Ghetto - 6:28. You would hear the part he infuses Bruno Mars's "I'm trippin' in finesse". His ability to mix local. What I m really excited about this week is on Saturday. We are in great debt and we need financial help urgently if we don’t want this icon (Majek Fashek) to die”-Uzoma Day Omenka, Rainmaker Manager * Manager begs Nigerian Government, Philanthropists, anyone willing to help to donate in saving Majek Fashek into his London Bank Account Number: # Barclays Bank 30260762202947 #Telephone: +1 682-246. 35 videos Play all All Tracks - Majek Fashek Majek Fashek - Topic Majek Fashek's 30 Year Music Career In 10 Minutes | EN | - Duration: 10:35. “Send Down The Rain“ is Ocean P’s first official single from his upcoming project. He signed a record deal with Chocolate City in 2010 and released his debut studio album Jag of All Tradez that same year. 5:29 [Deleted video] MAJEK FASHEK (I AM NOT AFRAID) by JAMES AKINA. on a bike, M. Hopeless people ina new york, Tre, tre, tre, tatitre. Throwback photos of legendary reggae musician, Majek Fashek during a show that shut down Port Harcourt, have emerged. Jamtone - An Inspiring Dub. Video Majek Fashek I39m Not Tired Gratis Download Majek Fashek I39m Not Tired Fast, Easy, Simple Download Majek Fashek I39m Not Tired. He is the only person that supported. JAH BLESS!. South African-- if not GENERALLY African-- popular-music artistes were "volumetrically" unable or unwilling to repeatedly release albums with more than eight all-new SONGS (not just "tracks") at a time. Home; DMCA; Log In; Register; Get Offline Free Music Downloader! 10x Faster; Share on Facebook. As for linda i knw we ought to be ourselves but if we have bad habits we dont have to air it on national TV!!!!haba Now all the ladies will be in hot pursuit of Hector (being a bloke and a rich on at that. 2Face Idibia. YBNL Olamide Baddo , From his Baddest Guy Ever Liveth Album, Release a brand new Single titled "Rep Adugbo" Ft. Chika - 'Testimonies' (Prod. 18MB - duration Majek Fashek - I'm Not Tired size:8. a Nelz is an Afro Pop artiste, who grew up listening to the likes of Asa, Nina Simone, Elvis Presley, Elton John, Angelique, Majek Fashek, Fela Anikulapo etc whose music. Determine-H. And I want to thank you for giving me. Music legend, Majek Fashek teams up with 2Baba for No More Sorrow, a re-worked version of his 90’s hit track Holy Spirit from the 1991 Spirit of Lovealbum. There was a fight that involved him and Tekno that I made Tekno not to respect him. DOWNLOAD MP3: St. Majek Fashek - So. View credits, reviews, tracks and shop for the 2005 CD release of Little Patience on Discogs. majek - revalations. Ceeza Milli - Quarantine Riddim Mp3 Download; Lagos State Warns Private Schools Against Online Teaching. Nigerian music legend, Ras Kimono, died today June 10, at the age of 60. Majek Fashek turned us into rain-makers; and Sunny Ade made the most socially awkward of us the life of the party with his infectious jams that made you dance. African reggae star Majek Fashek (born Majekodunmi Fashede)attracted international attention in 1987, when his self-penned tune, "Send Down The Rain" seemed to coax a rain storm that ended one of the worst droughts in Nigeria's history. on a bike, M. I m not much for shameless self-promotion, but as I ve never really talked about myself or what I do in this column I d like to divulge a bit of my life to you readers. I have to admit the Spirit of Love album has to be Majek Fashek's best work. Bronson took out hordes of Baretta wielding gangsters with his trusty double barreled shakabula. Lyrics to 'I'm Not Tired' by Majek Fashek. money can’t buy you love / ralph tresvant 17. William McGonagall. Free mp3 - 2pac makaveli ft pain 50 cent eminem solo much music online. About the Artist. I Can See It (feat Barrington Levy) 15. Lyrics to 'I'm Not Tired' by Majek Fashek. Joan Oyemolan 7 days ago Entertainment Leave a comment 2 Views. I’m also that woman who faces many issues alone, but will still do anything to see someone else smile” read the caption. Download mp3 Get Rich Or Die Trying Im Not Tired By Majek Fashek. I speak French, Spanish, and some Portuguese and enjoy playing music from other parts of the world and DJ’ing in these languages from time to time. Lil Kesh released another banging hit song mid 2015 EFEJOKU featuring label mate Victoh, this actually boosted his fan base all the more showing what a real talent he is. Explore releases from Majek Fashek at Discogs. Says BP "I'm honoured to be a part of this initiative". Spirit Of Love Majek Fashek mp3 high quality download at MusicEel. 5:52 Majek Fashek - I'm Not Tired by ziontao. I promise, we will get […]. This is a list of reggae musicians. When Majek Fashek strolled casually into the premises of Vanguard newspapers, Wednesday, in the company of his manager, Omenka Uzoma Day, not many members of staff recognized him. Majek Fashek - Send Down the Rain Send ringtone 14. 2PAC - BLACK ANGEL 01 Intro 02 Hold On Be Strong 03 Let Them Thangs Go 04 Nothing To Lose 05 Thugz Mansion 06 Homeboyz 07 I Wonder If Heaven Got A Ghetto 08 Me Against The World 09 Can U Get Away 10 Baby Don't Cry 11 Loyal To The Game 12 Temptations 13 Never Call You Bitch Again 14 Losin' It 15 There U Go 16 Who Do You Believe In 2PAC. 06 - Majek Fashek - Promised Land - Various Artists - Putumayo Presents Party With Putumayo. You would hear the part he infuses Bruno Mars's "I'm trippin' in finesse". Danfo Drivers Mountain Black and Mad Melon Music Fans can show their love here. Majek Fashek says. ” And as for me, I could do with a holiday. Olamide Mp3 Download; AFRO beat artist, Bella Shmurda teams up with Olamide for “Vision 2020” Remix, produced by ID Cabasa. REGGAE STYLE SONG MADE FOR THE CELEBRATION OF OBAMA. Olamide Mp3 Bella Shmurda – Vision 2020 ft. Majek Fashek - Power of a Woman mp3. 2baba (VIDEO) by PastorAji(m): 9:13am On Aug 24, 2016 GOD BLESS YOU MY BRODA I AM STILL YOUNG (EARLY30'S) BUT I STILL PREFER TO LISTEN TO DON WILLIAMS THAN TO LISTEN TO WIZKID. The title is prophetic. The 6'2 tall, slim and handsome model has worked with Venny Magazine, Dela designs, K. Counting the number of. Putumayo World Music Download: Follow this Link I'm Not Tired - Majek Fashek. STUDiiO is an independent artist with dynamic vocals of raw emotions. Massive - Inner Circle 10. Free MP3 Download in 1 Click. Play download. 91MB - duration:06:20. Ok, I really wasn't there, but no doubt between the song and the story that goes with it, it's one of Nigeria's most iconic songs from an iconic artist. I got the inspiration when my pastor was preaching. Majek Fashek - I'm Not Tired From the CD "Spirit of Love". Good morning, I’m the right plug for your customizable and affordable wears today. Majek Fashek - I'm Not Tired by ziontao. com, worldmusic. Jah why," he posted on Instagram. majek fashek MP3. Download Sweet Mother Mp3 SEE ALSO: Send Down The Rain (1988)- Majek Fashek All thanks to 360nobs. Generally a protest-minded Rastafarian outfit, Steel Pulse started out playing authentic roots reggae with touches of jazz and Latin music, and earned a substantial audience among white U. Download MAJEK FASHEK music for free. cx All music archive download, free mp3. mp3 03 - Cultural Roots - Execute. Mp3 Addeddate 2019-09-10 00:41:02 Identifier 007themefromdr. Mdundo is kicking music into the. and its gonna take me a couple days, cause im not much of a reggae listener but the stuff i do listen to is bomb. Miss Beverly - Ijahman. Channels Television 46,843 views. Burna Boy confesses to using purple drank to numb his pain. Jah People. Majek Fashek - Without You Ovbiosa Johnson. 1 MP3 Songs in this album (4:40) ! Related styles: Reggae: Pop-Reggae, New Age: Progressive. These wears can be customized with your name, picture, your logo words too Shirts-2/3k5, Sweatshirts-4/6k Hoodies- 5k/7k Send a dm or WhatsApp: wa. Eric Donaldson. [DOWNLOAD NOW] Prince Osito join forces with Cupastonce on his latest record titled "My Guys" Prince Osito (A. The beat stolen directly from one song, lyrics and flow from another. Majekodumni Fasheke, better known as Majek Fashek, is a Nigerian reggae musician, one of the most popular from that country. Majek Fashek - I'm Not Tired Send ringtone 11. Majek Fashek. Olamide single handedly paid my medicals bills when I was sick in London' - Majek Fashek. plus-circle Add Review. Nick Cannon was hospitalized on Wednesday after working so many jobs almost at the same time. 5:11 DOWNLOAD PLAY. Yes, it happens so many times. I'm Available (feat. Download Majek Fashek I39m Not Tired Video Music Download Music Majek Fashek I39m Not Tired, filetype:mp3 listen Majek Fashek I39m Not Tired Mp3. The second richest man in the world, Bill Gates, has revealed what governments across the world must do if life is to go back to normal, as countries relax lockdown restrictions enforced. Paxy 30,123 views. Download the latest song of So Long Too Long: Holy spirit Majek Fashek - So Long Too Long Reggae. mp3 11 – Breaking Up – Arturo Tappin. Majek Fashek - Im Not Tired - 6:29 All songs are in the MP3 format and can be played on any computer, laptop, phone or MP3 Player. The least said of Majek Fashek now,the better. STUDiiO is an independent artist with dynamic vocals of raw emotions. He said I want to leave Made Men Music, I’m tired. 2Face Idibia. 3 exoplained that the. Search and download from millions of songs and albums. Choose from several source of music. HOME; LamBAtells; MR EAZI. In this post, I'm going to be providing free downloads to some of the the best Yoruba fuji music. Get lyrics of More abundantly song you love. u mean the Dj will pause and continue the next day. Full Movies via Streaming Link for free. segunda-feira, 8 de novembro de 2010 05 - Just Imagine I´m Loving You 06 - Dancing in Guyana Majek Fashek (1) Maleo Reggae Rockers (1). Send down the rain had every body singing. January 10, 2018 0. The best 3 similar sites: panafricanallstars. Cultural Roots - Hell A Go Pop - 01 - Cultural Roots - Hell A Go Pop. [C G Am Em Dm F D] Chords for Majek Fashek - Send down the rain with capo transposer, play along with guitar, piano, ukulele & mandolin. Majek Fashek - I'm Not Tired→ Download, Listen and View free Majek Fashek - I'm Not Tired MP3, Video and Lyrics. Various translations of his name include "high priest who does not lie" and "powers of miracles, the high priest does not live", and he claims he was born with dreadlocks, the "holy" hairstyle of Rastafarianism. She can't be a role model. Don't worry about the categories, just enjoy the music. Free Legal Music & MP3 Player! (not MP3 music downloader or free music download) YouTube Music. Masterkraft Mp3 Download; Ceeza Milli – Quarantine Riddim Mp3 Download; Lagos State Warns Private Schools Against Online Teaching. No Dj will be ready for such time to waste on mixtape. DJ Kentalky ft Harrysong, Skales & Yemi Alade – “Looking For Me”. I have to admit the Spirit of Love album has to be Majek Fashek's best work. 50+ videos Play all Mix - Majek fashek - I Come from the Ghetto ( 2 ) YouTube; I'm Not Tired - Duration: 6:30. Bozo vreco MP3. Jah Is The Only One 07. 99 MB) download of Majek Fashek Holy Spirit Mp3 Free Download (5:49) , mp3 song Majek Fashek - Holy Spirit music for single click. Ok, I really wasn't there, but no doubt between the song and the story that goes with it, it's one of Nigeria's most iconic songs from an iconic artist. Send Down The Rain. Today, the Memphis rapper has shared the new single from Rubba Band Business: The Album , which features some vocal contributions from Kanye West. According to LIB, veteran reggae artiste, Majek Fashek said he had arranged for Kimono to meet him up in America. 0 MiB, 3,590 hits) DOWNLOAD: Naira Marley – Aye (3. Majek Fashek - Genesis. As a matter of fact, St. Blogger roots reggae o maior blog de reggae do Brasil venha conferir a geração do reggae que marcou anos 2000 80 & 90 baixe albuns com qualidades ROOTS REGGAE MAIOR ACERVO DE REGGAE DA INTERNET: 01/11/19. All songs are in the MP3 format and can be played on any computer, laptop, phone or MP3 Player. And I want to thank you for giving me. I'm Not Tired - Duration: 6:30. Bill Summers. This is only available as an mp3 download. Majek will have your soul, spirit and body dancing if you have a "Little Patience". He said I want to leave Made Men Music, I’m tired. He is the founder and owner of the record label Rocktown Records, which is home to recording artists such as Edwards himself, Gil, Divine, King BAS, Nkay, David, Dudu and Micah Heavens, among others. Following the death of Ukeleke Onwubuya, Nigerian reggae star, who was professionally known as Ras Kimono died 2days, sparking sad reactions from around. Songs Sort by: Listen Now $0. Buy VA Putumayo Presents: The Best Of World Music - Reggae Mp3 Download. Putumayo World Music Download: Follow this Link I'm Not Tired - Majek Fashek. In all the five weeks I spent at Kaduna that year, it is the gate-crashed music concert featuring Majek Fashek that remains the highlight of my vacation. Rain, Tax (It's Inevitable) Rain, Tax (It's Inevitable) Céline Dion. The girl was awesome. Fallon met Nigerian artist Majek Fashek - whose song 'We Are Not Afraid' soundtracks the campaign - in 1991, when he traveled to Nigeria to spend time with the mythical singer they called 'The Rainmaker'. Majek Fashek Inna New York: B2: I'm Not Tired: B3:. li’l bit / for real 19. I purchased this album in cassette format in 1996. Majekodumni Fasheke, better known as Majek Fashek, is a Nigerian reggae musician, one of the most popular from that country. I Come From The Ghetto. Majek Fashek's manager, Umenka Uzoma says Olamide is the only celebrity that supported the singer financially during his health issues. Download MP3 files of music from a wide variety of categories to your mobile device. Majek Fashek mp3 high quality download at MusicEel. no Scanner Internet Archive HTML5 Uploader 1. mp3 2,686 KB 13- I feel sad and I don't know why (2. His music cut across diverse genres fusing Afro pop, RnB, world music and/with reggae/dancehall to take his listeners on a musical journey, with influence such as Bob Marley, Lauren Hill and legendary Majek Fashek. mp3 1,673 KB 14- After meditation my peaceful space collapses (1. African reggae star Majek Fashek (born: Majekodunmi Fasheke) attracted international attention, in 1987, when his self-penned tune, "Send Down The Rain," seemed to coax a rain storm that ended one of…. Download the latest song of So Long Too Long: Holy spirit Majek Fashek - So Long Too Long Reggae. Kweli's fifth solo album, Prisoner of Conscious, a title derived from Kweli's constant labeling as a "conscious rapper" and based on Nigerian reggae artist Majek Fashek's album Prisoner of Conscience. King Promise – My Lady [Video]. The official YouTube app. Get lyrics of More abundantly song you love. Majek Fashek Inna New York: B2: I'm Not Tired: B3: Sodom And Gomorrah: B4: Beware: Companies, etc. BIA [AUDIO] DOWNLOAD MP3: Jackboy – Cleaning Crew [AUDIO] DOWNLOAD MP3: The Streets & Tame Impala – Call My Phone Thinking I’m Doing Nothing Better [AUDIO] DOWNLOAD MP3: Kid Cudi – Leader of the Delinquents [AUDIO] DOWNLOAD MP4: Bella Shmurda – Sho Mo Mi [VIDEO]. Brother Dan All Stars - Farewell My Love. Eric Bibb, Rory Block & Maria Muldaur - 08 - Don't Ever Let Nobody Drag Your Spirit Down. Majek Fashek - Spirit of Love - Amazon. Music Videos. I Come from the Ghetto. com, OldNaija. Mp3 Music Downloader. The performance staged in 1987 by the celebrated musician still remains a reference point for music pundits till date. 2Baba HERE (NOT SEEN WHAT YOU ARE LOOKING FOR?, REQUEST FOR A SONG, ALBUM OR VIDEO HERE). Majek Fashek. Jah Give Us Life - Wailing Souls 11. To Pimp A Butterfly (Full Album Zip File). He’s built respect and credibility, even though he’s still waiting for the big break – little wonder he’s adopted the slogan ‘Boyz Are Not Smilin‘. Majek Fashek - Topic 1,709 views. Oh Yeah! 11. Nah Tell Nuh Lie 13. 50+ videos Play all Mix - Majek fashek - I Come from the Ghetto ( 2 ) YouTube; I'm Not Tired - Duration: 6:30. Majek Fashek - Kpangolo Send ringtone 11. We got lots of great story that can be re-make for the World to see. Majek Fashek - Holy Spirit Send ringtone 15. Latest Naija Music and Nigerian Songs From Top Naija Nigerian Artist, Rate Nigerian Music and Naija Music from 9ice, 2face, faze, dbanj and other nigerian artist for free I'm Not Afraid. 3 FM radio station where he talked about the state of the music icon's health. teddy bear / g-wiz 12. A strong review of Naija albums GENRE: Hip Hop LABEL: Chocolate City Year of release: 2010 Jesse Garba Abaga aka Jesse Jagz has lent his top-notch production to nearly every 9ja artist – from his brother, MI to Majek Fashek and for the better part of this new decade, his musical stamp will definitely be used more than NIPOST stamps on different genres of music posted on blogs. Nollywood actor and singer, Gabriel Afolayan also known as G'fresh is out with a new vibrant Afro-pop sound titled "Take A Chance". Free Download Majek Fashek Holy Spirit MP3, Size: 7. 91MB - duration:06:20. I Am Not Afraid Bulletproof Wil3y Mash Glitch Mob Ft Eminem And Sia Play and Listen I Am Not Afraid Bulletproof Wil3y Mash Glitch Mob Ft Eminem And Sia Mp3 0 plays 4:57 11. Buy & Download Cheap Mp3 Music Online. Osita Jonah Ikegwuonu) was born and raised in Port Harcourt, Nigeria. Not all these other ones that hops into drama like say na food. wmv by Ade Matr1xx. Jah why," he posted on Instagram. STREAM/DOWNLOAD MP3 LadiPoe ft. I Am Not Afraid. Majek Fashek - I'm Not Tired Send ringtone 12. This news was made public by Daddy Showkey on Thursday, the 26th of September who expressed his anger and frustration over this loss via Instagram. " Some folks are pointing to the Enquirer article below as the reason for the wedding being called off. dark and handsome MP3. "Oluwa Lo Ni" by Wizkid is a song that references the artist rise to fame and stardom to God. Download free Majek Fashek And The Prisoners Of Conscience - So Long Too Long mp3 free. I'm the one wearing the shoe so I know where it pinches. Download Music Mp3:- Majek Fashek - "No More Sorrow" ft. in a lex, M. Majek Fashek - Sailing Send ringtone 16. Majek fashek - I Come from the Ghetto ( 2 ). Etienne" IS listed on the 2010 box, but I have no idea if that's the released version with a. Because our MP3s have no DRM, you can play it on any device that supports MP3, even on your iPod! KBPS stands for kilobits per second and the number of KBPS represents the audio quality of the MP3s. Home Music Video Entertainment | more | call 09039058619. Majek Fashek 'The Rainmaker' Majekodunmi Fasheke has been hospitalized. 1 MiB, 15,431 hits) DOWNLOAD: Katermilli - Problem (3. Majek Fashek. Number fourteen also highlights CMR’s CEO “The. Determine-H. Timi Dakolo returns with yet another bone-chilling rendition. Download Latest Diamond Platnumz Songs & Music Videos Download Latest Kiss Daniel Songs 2019 & Music Video Download Latest Davido Songs & Music Videos 2019 | Davido New Song. The presidential chat started around 7:00PM Nigerian time, and was closely monitored byOlofofounited. wmv by Ade Matr1xx. He attended Citizen Comprehensive College Epe, Lagos and later enrolled at Jibril Martin. Majek Fashek – Weep Not Children mp3, video download. wav" WAVE TRACK 08 AUDIO TITLE "Send Down the Rain" PERFORMER "Majek Fashek" INDEX 01 00:00:00 TRACK 09 AUDIO TITLE "I'm Not Tired" PERFORMER "Majek Fashek" INDEX 00 05:16:50 FILE "09. Bassey Ikpi is the Nigerian-American writer whose debut book of essays is the epitome of vulnerability and honesty around the mental health conversation. no more sorrow by Majek Fashek Ft. God always gives me the inspiration every year to write new songs. Majek Fashek - Im Not Tired - 6:29 Majek Fashek - I Come From de Ghetto - 6:28. Find similar music that you'll enjoy, only at Last. Osita Jonah Ikegwuonu) was born and raised in Port Harcourt, Nigeria. Timi Dakolo returns with yet another bone-chilling rendition. He was born in Benin City Edo State to Veronica and Andrew Onoge. “I’m that woman who is always there for people when they need a friend. To view this video download is when she was in her prime it's like micheal jacson in his billie jean days. Download Majek Fashek I39m Not Tired Video Music Download Music Majek Fashek I39m Not Tired, filetype:mp3 listen Majek Fashek I39m Not Tired Mp3. 89 In MP3 cart View MP3 Cart I Am Not Afraid. He is the founder and owner of the record label Rocktown Records, which is home to recording artists such as Edwards himself, Gil, Divine, King BAS, Nkay, David, Dudu and Micah Heavens, among others. STUDiiO is an independent artist with dynamic vocals of raw emotions. wmv by Ade Matr1xx. The chat started with a review of the “trying times” in Nigeria. Send down the rain Papa Papa papayo, Send down the rain Mama mama mamayo, Yaga yaga yagayo, send down the rain Jah is my song and that's make me to be so strong Jah is my song and that's make me feel so strong No matter what they say Even if they say I'm wrong I'm gonna feel strong Cos I know I'm gonna live long Oh Lord Some are living bad. If it just won't sing for you 'Cause all that's left has gone away And there's nothing there for you to prove Oooh, look what you've done You've made a fool of everyone Oh well, it seems like such fun Until. After working with some of […]. mp3 for free. teddy bear / g-wiz 12. a fool for you / walter & scotty 15. In all the five weeks I spent at Kaduna that year, it is the gate-crashed music concert featuring Majek Fashek that remains the highlight of my vacation. MB3: Mixer Box. I Come From The Ghetto 6:24 Play. All songs are in the MP3 format and can be played on any computer, laptop, phone or MP3 Player. Listen to both songs on WhoSampled, the ultimate database of sampled music, cover songs and remixes. Lyrics to 'Near The Cross' by The Hymn Makers. that not mixtape. But if someone wants to, it's really easy to open a free flickr account and name it and upload. Majek Fashek. Mr Eazi has revealed he turned down a huge amount of money even while he was so broke. I’m Cold 18. "Oluwa Lo Ni" by Wizkid is a song that references the artist rise to fame and stardom to God. Download Music Mp3:- Majek Fashek – "No More Sorrow" ft. Pheelz & Buckwyla. He's built respect and credibility, even though he's still waiting for the big break - little wonder he's adopted the slogan 'Boyz Are Not Smilin'. Choose from several source of music. EMD offers a premium experience that includes unlimited access to CD quality music. Throwback photos of legendary reggae musician, Majek Fashek during a show that shut down Port Harcourt, have emerged. Video Majek Fashek I39m Not Tired Gratis Download Majek Fashek I39m Not Tired Fast, Easy, Simple Download Majek Fashek I39m Not Tired. I'm Under Spiritual Attack - Majek Fashek. The singer made this known to her fans on twitter, although she did not state the reason for her decision, but it is clear that the clu. Please help improve this section by adding citations to reliable sources. Majek Fashek - Holy Spirit Send ringtone 15. Davido (34) Donald Trump (18) Download Mp3 (21) EFCC (25) Election. mp3 1,673 KB 14- After meditation my peaceful space collapses (1. I think I'm going Mp3 Mp4 Mkv Videos And Music Download. Download Majek Beware by Majek Fashek. Osita Jonah Ikegwuonu) was born and raised in Port Harcourt, Nigeria. He called me up in England and he said, Bros, sorry oh, I wan support Baba, don't discuss this with anybody and he said I must not mention this. Burna Boy – “Anybody” [Lyrics]. • Discover new music, albums, and podcasts • Search for your favorite song, artist, or podcast • Enjoy playlists made just for you • Make and share your own playlists • Find music for any mood and activity • Listen on your mobile. 15 - Samba Luku Samba - Ricardo Lemvo & Makina Loca - Putumayo World Music Sampler 15 Years Of The Best Music From Around The World. Nollywood actress, Tonto Dikeh has opened up on her choice to owe vendors sometimes when she buys items. About the Artist. We know the truth. mp3 02 - Cultural Roots - Every Man Has A Right. Ekperi Watts. a fool for you / walter & scotty 15. Also, Majek Beware" stands out on this album. Majek Fashek - Majek Beware Send ringtone 10. pls dis is real, no jokes. Owen Gray, Brother Dan All Stars - Show Me Baby. Rank #1: Jah Works Radio 11/11/2019 Vaughn Benjamin Akae Beka Tribute, Rank #2: Jah Works Radio 8/21-22/2018 with Ras E, Rank #3: Jah Works Radio 7/16/18. " Some folks are pointing to the Enquirer article below as the reason for the wedding being called off. Majek Fashek. on Little Patience. Today, the Memphis rapper has shared the new single from Rubba Band Business: The Album , which features some vocal contributions from Kanye West. He has timeless songs in his repertoire. 6:27 Majek Fashek - I'm Not Tired. money can’t buy you love / ralph tresvant 17. "Olamide Is The Only Nigerian Artiste That Assisted With My Medicals Bills When I Was Sick In London" - Majek Fashek (0) Zlatan's Reply To Those Saying He & Naira Marley Chased Olamide Out Of Market (3) Zlatan Shares The Message He Sent To Olamide Before He Became A Star (0) Yemi Alade Signs Deal With Universal Music Africa (0). He often talks about growing up in his home town of Sapele Delta State. King Promise – My Lady [Video]. Chief Ebenezer Obey (The Birthday Playlist) Chief Commander Ebenezer Obey, a veteran Nigerian Juju musi. Majek fashek. Barry Brown - I'm Not So Lucky Barry Brown - Live At New Morning Barry Brown - Mr. wav" WAVE INDEX 01 00:00:00 FILE "10. Majek Fashek turned us into rain-makers; and Sunny Ade made the most socially awkward of us the life of the party with his infectious jams that made you dance. Music legend, Majek Fashek teams up with 2Baba for No More Sorrow, a re-worked version of his 90's hit track Holy Spirit from the 1991 Spirit of Lovealbum. Majekodunmi Fasheke, popularly known as Majek Fashek, has revealed. For Advert placement and enquiries, mail us at [email protected]. Artist: Majek Fashek Song: I'm Not Tired Album: Genre: 0. Jesse Garba Abaga (born August 10, 1984), known professionally as Jesse Jagz, is a Nigerian rapper, record producer and songwriter. 63) Send Down The Rain - Majek Fashek 64) Redemption Song - Majek Fashek 65) Sugar For Mi Tea - Ras Kimono 66) Natty Get Jail - Ras Kimono 67) Rat Race - The Mandators 68) Obaro - Evi Edna Ogoli 69) Happy Birthday - Evi Edna Ogoli 70) Jealousy - Evi Edna Ogoli 71) Ten Commandments - Orits Wiliki 72) Ose O Jesu - Chief Commander Ebenezer Obey. Majek Fashek. Check out the Latest Naija Gist from Nigeria, Nigerian Celebrity Gossip, Photos, Man - wife snatcher, husband snatcher, Facebook updates of Celebrities, Blog post, Nigerian Police,Celebrity's baby, Share on Facebook, Married actresses, Nigerian, Blog photo, ọmọ oódua Networking, News Art, Entertainment Forum and Nigerian Gist with Yoruba Culture and Tradition. Nollywood actress, Tonto Dikeh has opened up on her choice to owe vendors sometimes when she buys items. The best day of my life. Solidstar. It is a 15-track album. majek - revalations. 3MB - duration:06:37. Reggae Legend and guitarist, Majekodunmi Fashekun popularly as Majek Fashek, who has been off the music scene for a while has finally cleared the air on what happened to his…. 'I'm About To F*ck Shit Up'- Davido Brags About Collaboration With Adekunle Gold Posted on February 24, 2018 Entertainment News Davido's Uncle, Senator Adeleke Dances To Olamide's 'Wo' At Silverbird Awards. Miss Beverly - Ijahman. Majek Fashek - So Long Send ringtone 8.